Furies God Of War, Antónimo De Informativo, La Noche Estrellada Descripcion En Inglés, Loretto Bernal Edad Biografia, Jorge Gómez Wikipedia, Referencias Bibliográficas Apa Más De 6 Autores, Sinonimo De Consecuencia, Dibujos De Black Panther Faciles, Planta De Naranja Cuidados, Tinas Para Bañar Bebés, " /> Furies God Of War, Antónimo De Informativo, La Noche Estrellada Descripcion En Inglés, Loretto Bernal Edad Biografia, Jorge Gómez Wikipedia, Referencias Bibliográficas Apa Más De 6 Autores, Sinonimo De Consecuencia, Dibujos De Black Panther Faciles, Planta De Naranja Cuidados, Tinas Para Bañar Bebés, " />

dicen jarabe de palo

Hoy No Soy Yo. La Flaca is the debut album by the Spanish Latin rock group Jarabe de Palo, released in 1996. Completo Incompleto. E tem o que merece. Falam que estamos neste mundo para sofrer. The album was produced by Joe Dworniak for Virgin Records España. DICEN es una canción de Jarabe De Palo del año 2004, este tema está incluido dentro del disco Un metro cuadrado. Bonito. La Flaca. Dicen, a song by Jarabe De Palo on Spotify. 2004 • 1 song, 4:17. We found 34 Jarabe De Palo songs on chords and tabs. La Luz De Tu Corazon. We currently don't have any genres associated with this song. Que se for jogar tem que jogar para ganhar. Dicen que venimos al mundo a sufrir Que la vida es un engaño Que si juegas tienes que jugar a ganar Que eres lo que tienes Y tienes lo que mereces Vives, ganas, pierdes Dicen que es así. Déjame Vivir. Dicen. TITLE "Dicen" PERFORMER "Jarabe de Palo" REM COMPOSER "" FLAGS DCP INDEX 01 03:06:61 TRACK 03 AUDIO TITLE "Me gusta como eres" PERFORMER "Jarabe de Palo" REM COMPOSER "" FLAGS DCP INDEX 01 06:25:17 TRACK 04 AUDIO TITLE "Completo incompleto" PERFORMER "Jarabe de Palo" REM COMPOSER "" FLAGS DCP INDEX 01 10:17:39 TRACK 05 AUDIO TITLE "El lado oscuro" PERFORMER "Jarabe de Palo… Você vive, ganha, perde. Los Ángeles Visten De Blanco. Agua. Would you like to contribute? Falam que não temos nada para descubrir. Que tudo está inventado . Que a vida é uma enganação. LETRA 'Dicen' Dicen que venimos al mundo a sufrir que la vida es un engaño que si juegas tienes que jugar a ganar que eres lo que tienes y tienes lo que mereces vives, ganas, pierdes dicen que es así. Depende. Falam que é assim. Dicen (tradução) Jarabe de Palo Um Metro Cuadrado. Besos En El Ascensor. Eso Que Tú Medas. 4:17 0:30. Background information; Origin: Montanuy, Spain: Genres: Spanish rock: Years active: 1996-2020: Labels: Virgin, Tronco: Website: JarabeDePalo.com : Past members: Pau Donés; David Muñoz; Alex Tenas; Jordi Vericat; Jaime Burgos; Jimmy Jenks Jimenez; This article relies too much on references to primary sources. El Lado Oscuro. Que você é o que tem. Jarabe de Palo in concert in 2005. Lo Que Te Voy A Decir . Humo. Eso Que Tú Me Das. Que só existe um caminho criado para nós. Adios. exibições 4.374. Duerme Conmigo. Play on Spotify. Dicen. By using our website and our services, you agree to our use of cookies as described in our Cookie Policy. Dicen. Las Cruces De Tijuana. Dicen Jarabe de Palo. Compartilhar no Facebook Compartilhar no Twitter. 1. Jarabe de Palo. Immediately after its release, the album obtained a poor commercial reception, selling only 12,000 copies within seven months. × Dicen By Jarabe De Palo. We and our partners use cookies to personalize your experience, to show you ads based on your interests, and for measurement and analytics purposes. Song information for Dicen - Jarabe de Palo on AllMusic. Dos Dias En La Vida. Dicen. Grita.

Furies God Of War, Antónimo De Informativo, La Noche Estrellada Descripcion En Inglés, Loretto Bernal Edad Biografia, Jorge Gómez Wikipedia, Referencias Bibliográficas Apa Más De 6 Autores, Sinonimo De Consecuencia, Dibujos De Black Panther Faciles, Planta De Naranja Cuidados, Tinas Para Bañar Bebés,

No Comments Yet

Comments are closed

Business Consulting